#TITLE:She;
#SUBTITLE:Expi3nze;
#ARTIST:TVXQ;
#TITLETRANSLIT:;
#SUBTITLETRANSLIT:;
#ARTISTTRANSLIT:;
#CREDIT:;
#BANNER:bn.png;
#BACKGROUND:bg.png;
#LYRICSPATH:;
#CDTITLE:;
#MUSIC:She.mp3;
#OFFSET:0.120;
#SAMPLESTART:100.000;
#SAMPLELENGTH:12.000;
#SELECTABLE:YES;
#BPMS:0.000=66.000,17.000=33.000,17.250=132.000,17.750=66.000,18.000=132.000,50.000=66.000,50.167=264.000,50.500=66.000,50.667=264.000,51.000=66.000,51.167=264.000,51.500=66.000,51.667=264.000,52.000=66.000,52.167=264.000,52.500=66.000,52.667=264.000,53.000=66.000,53.167=264.000,53.500=66.000,53.667=264.000,54.000=132.000,58.000=66.000,58.167=264.000,58.500=66.000,58.667=264.000,59.000=66.000,59.167=264.000,59.500=66.000,59.667=264.000,60.000=66.000,60.167=264.000,60.500=66.000,60.667=264.000,61.000=66.000,61.167=264.000,61.500=66.000,61.667=264.000,62.000=132.000,162.000=66.000,166.000=132.000,230.000=66.000,252.000=132.000;
#STOPS:;
#BGCHANGES:;
// cache tags:
#FIRSTBEAT:0.750;
#LASTBEAT:252.000;
#SONGFILENAME:Songs/9you/She (TVXQ)/She.sm;
#HASMUSIC:1;
#HASBANNER:1;
#MUSICLENGTH:135.056;
// end cache tags

//---------------dance-single - ----------------
#NOTES:
     dance-single:
     :
     Hard:
     12:
     0.836,0.816,1.000,1.000,0.252,440.000,154.000,156.000,0.000,138.000:
0000
0000
0000
0001
0100
0010
0100
1000
0012
0000
0000
0000
0200
0000
0310
0100
,
1003
0020
0000
0000
0131
0000
0010
0001
0010
0000
0000
0000
0011
0000
0100
0010
,
2001
0000
0200
0001
0020
0001
3002
1000
2300
0000
0030
0000
3113
0000
0001
1000
,
0010
0001
0000
0000
1010
0000
0010
0000
0010
0001
0010
0100
1010
0000
0000
0000
,
0010
0001
1000
0100
0012
0000
0000
0000
1113
0000
0001
0000
0010
0000
0100
0000
,
1011
0000
0001
0000
1000
0000
0100
0000
0011
0000
0100
0010
1000
0000
1010
0000
,
1110
0001
1000
0100
1010
0001
0100
0000
,
0111
0000
1000
0000
0001
0000
1100
0000
1100
0000
0000
0011
0000
0000
1100
0000
,
0111
0000
0010
0000
1000
0000
0000
0000
1001
0000
0010
0001
0010
0000
1000
0000
,
1101
0000
0010
0000
0100
0000
1000
0000
0011
0000
1000
1000
0001
0000
0110
0000
,
1101
0010
0100
1000
0011
0001
1000
0010
,
0111
0000
1000
0000
0100
0000
1010
0000
0101
0000
0000
1010
0000
0000
1010
0000
,
0011
0100
1000
0000
0020
0032
2003
3002
,
1123
0032
2003
3020
2031
0200
0310
0000
,
3111
0000
0000
0000
0002
2003
3200
0320
,
2131
0000
3200
0000
0320
0000
0032
0000
2003
0000
0100
0100
0001
0000
0010
0000
,
3102
0000
0000
0000
0000
0000
0000
0000
1100
0000
0000
1100
0000
0000
1100
0000
,
1113
0000
0020
0032
1203
0000
0320
0000
,
1131
0010
0100
1000
0012
0000
2000
0100
,
3113
0001
0010
0100
2000
0000
0200
0000
3302
0000
0000
0000
1103
0000
0000
0000
,
1101
0000
0001
0000
0001
0000
0010
0000
0102
0000
0000
1103
0000
0000
1100
0000
,
1101
0001
0001
0010
1001
0000
1100
0000
1200
0000
0000
0000
0320
0000
0000
0000
,
0132
0010
0100
0010
0103
0000
1010
0000
0020
0000
0000
0000
0131
0000
0000
0000
,
1110
0000
0000
0000
2100
0000
0000
0000
0200
0000
0020
0300
3200
0030
0020
0300
,
0002
0030
2000
0000
0200
3000
2000
0300
0203
3000
2000
0311
0000
0000
0211
0000
,
3002
0300
0200
0003
2002
0300
0010
0003
3012
0000
0000
0000
2003
0000
0000
0000
,
3111
0001
0100
1000
0012
0000
0020
0100
,
1133
0001
0001
0001
2001
0000
0002
0000
3203
0000
0000
0000
0311
0000
0000
0000
,
1110
0000
0001
0000
0010
0000
0100
0000
1020
0000
0000
1031
0000
0000
1001
0000
,
1110
0001
1000
1000
0011
0000
0011
0000
2000
0000
0000
0000
3020
0000
0000
0000
,
1032
0100
0013
1001
2100
0000
3011
0000
,
1101
0000
0000
0000
2100
0000
0000
0000
0200
0000
0020
0300
3200
0030
0020
0300
,
0002
0030
2000
0000
0200
3000
2000
0300
0203
3000
2000
0311
0000
0000
0211
0000
,
3002
0300
0200
0003
2002
0300
0010
0003
3012
0000
1000
0000
0100
0000
0010
0000
,
1110
0000
0010
0010
2003
0000
0000
0101
,
0111
0000
3020
1100
,
1201
0000
0000
0000
0000
0000
0000
0000
1031
0000
0000
1001
0300
0000
0011
0000
,
1011
0000
0000
0000
0010
0000
0010
0000
0200
0000
0010
0001
0010
0000
1000
0000
,
1011
0001
1000
0001
0302
0000
0000
1100
,
1110
0000
0000
0000
0000
0000
0000
0000
1103
0000
0000
1100
0000
0000
0011
0000
,
1110
0000
0000
0110
0000
0000
0110
0000
2012
0000
0000
0000
0000
0000
0000
0000
,
0000
0000
3203
0320
,
1131
0010
0100
1000
0012
0000
2000
0100
,
3113
0001
0010
0100
2000
0000
0200
0000
3302
0000
0000
0000
1103
0000
0000
0000
,
1101
0000
0001
0000
0001
0000
0010
0000
0102
0000
0000
1103
0000
0000
1100
0000
,
1101
0001
0001
0010
1001
0000
1100
0000
1200
0000
0000
0000
0320
0000
0000
0000
,
0132
0010
0100
0010
0103
0000
1010
0000
0020
0000
0000
0000
0131
0000
0000
0000
,
1110
0000
0000
0000
2100
0000
0000
0000
0200
0000
0020
0300
3200
0030
0020
0300
,
0002
0030
2000
0000
0200
3000
2000
0300
0203
3000
2000
0311
0000
0000
0211
0000
,
3002
0300
0200
0003
2002
0300
0010
0003
3012
0000
0000
0000
2003
0000
0000
0000
,
3111
0001
0100
1000
0012
0000
0020
0100
,
1133
0001
0001
0001
2001
0000
0002
0000
3203
0000
0000
0000
0311
0000
0000
0000
,
1110
0000
0001
0000
0010
0000
0100
0000
1020
0000
0000
1031
0000
0000
1001
0000
,
1110
0001
1000
1000
0011
0000
0011
0000
2000
0000
0000
0000
3020
0000
0000
0000
,
1032
0100
0013
1001
2100
0000
3011
0000
,
1101
0000
0000
0000
2100
0000
0000
0000
0200
0000
0020
0300
3200
0030
0020
0300
,
0002
0030
2000
0000
0200
3000
2000
0300
0203
3000
2000
0311
0000
0000
0211
0000
,
3002
0300
0200
0003
2002
0300
0010
0003
3012
0000
0000
0000
1010
0000
1000
1000
,
0010
1000
0000
0000
0110
0000
0010
0100
1003
0000
0000
0000
0110
0000
0100
0010
,
0200
0000
0000
0001
0020
0001
1000
0001
0302
0000
0000
0000
1130
0000
1000
0100
,
1003
0100
0000
0000
0110
0000
0010
0000
1000
0100
0010
1000
0101
0000
0000
0000
,
0010
0001
1000
0010
0201
0000
0000
0000
0000
0000
0000
0000
0000
0000
0000
0000
,
0000
0000
0000
0000
,
0300
0000
0000
0000
;
